Plus, Bela Tarr's seven-hour opus Satantango; a 35mm presentation of Kiss of the Spider Woman shown in conjunction with the Center for the Humanities Great World Texts program; a restored DCP of the action classic The Great. "Satantango" breaks down into separate episodes, like a long, tense, disturbingly effective sequence involving a young girl and her pet cat. Torless Bardamu. Mihály Vig, Putyi Horváth, László feLugossy. The film observes the lives of the inhabitants on a failing collective farm. But as the increasingly. Translate your SRT subtitle files into a rich variety of languages and merge them into one, instantly This neat tool allows you to easily translate your SRT subtitle files into any language supported by. DVD 11 Harrowhouse (1974). A wide selection of free online movies are available on FMovies / BMovies. HD English SubEpisode 12 MULTI SUB. It is based on the novel Satantango by Hungarian novelist László Krasznahorkai, who had been providing Tarr with stories since his 1988 film Damnation. , 2008, lithuanian and english subtitles. The Witches full movie english subtitles free. The town's source of revenue, a factory, has closed, and the locals, who include a doctor and three couples, await a cash payment offered in the wake of the shuttering. Найдено всего 9,544. بهترین سایت دانلود رایگان فیلم و سریال خارجی با لینک مستقیم ، دانلود جدید ترین فیلم ها و سریال های زبان اصلی روز دنیا، دانلود فیلم سینمایی، imovie-dl ، imdb-dl ، imoviedl ، imdbdl ، imoviesdl ، imovies-dl ، آی ام دی بی دی ال ، ای مووی دی ال. Satantango в гостях у Убермаргинала. Irimias, a villager thought to be dead, returns and, unbeknownst to the locals, is a police informant. Directed by Béla Tarr, 2001, 35mm, 145 min. Bad Genius (English Sub) Movie. Some want to abscond earlier with more than their fair share of the money. In Hungarian and German with English subtitles. Subtitles Satantango - subtitles english. Prequel to st season the drama is set in the Tang Dynasty where Wu Xin met Yue Qi Luos prior reincarnation. Copyright © 2020 TV Shows & Movies. Subtitle details. Satantango в гостях у Убермаргинала. Rublev gives up his work entirely after being forced to kill a man. He and his late wife, Doris, are parents of six children. (in Hungarian, with English subtitles) by Mr. html - Watch Life-on-the-Line-2015. Inhabitants of a small village in Hungary deal with the effects of the fall of Communism. A few of the villagers expect to receive a large cash payment that evening, and then plan to leave. ps: Satantango ha certamente una durata fluviale ma se si entra nel mood. All images and subtitles are copyrighted to their respectful owners unless stated otherwise. Satantango (1994, dir. Anime ENG-Sub (English). Mihály Vig, Putyi Horváth, László feLugossy. Speed Walking (2014) Full Film w/English Subtitles Pt 2. Subtitles for. There are some long films in there (Shoah- a 9 hour documentary about the holocaust, Berlin Alexanderplatz- 15 1/2 hour mini-series, Satantango- 7 1/2 and very slow paced), and a few are impossible to watch (Too Early, Too Late, has never had a release anywhere ever), but it's a good list. Director: Elem Klimov. In the Turkish series "You Knock on My Door" with English subtitles, we will talk about The heroine of the Turkish series, which can be watched online with English subtitles, understands that she has. Philippe Grandrieux, France, drama, 90 min. Tue, Feb 14, 2012 at 8:45 PM (Lloyd Mall 6) Buy Tickets. COM 1764 retrievals of 16 subtitles French Satantango (1994) Rooij Dutch Satantango (1994) jupit0r English The Last Full Measure (2019). In French with English subtitles. It takes place in Belarus during WWII and tells the story of the horrifying treatment of locals by German. Funny Games Michael Haneke, 1997, 110 min German with. Sorry there are no subtitles. English Español Dansk Dutch Français Italiano Svenska Norsk Asia & Etc. 24/04/2014 09:43 BST. Tickets Are No. Age Of Enlightenment Movies. Follow us across the internet. Woman of the Dunes Hiroshi Teshigahara, 1964, 147 min Japanese with English subtitles FULL DETAILS. In Hungarian with English subtitles. I was surprised to hear an English language version of Virginia, but apparently they recorded a whole album in English (which I've never heard). Amir_Kubrick. Page 3 of 3 - [Pietra Miliare] Satantango (Tarr, 1994) - posted in Film recensiti: E me durante i filmoni come Satantango mi piace addormentarmi un po, ogni tanto. Watch Korean drama online and watch Korean movies online. I wonder what he thought about subtitles. Sátántangó is a 1994 Hungarian film directed by Béla Tarr, adapted from a novel by László Krasznahorkai. In Hungarian with English subtitles. 33:1 / 4:3 Colour: B & W Disc 1: This disc includes the following Chapters: 1. Bela Tarr – Satantango subtitless Part7. Fast, Cheap, and Out of Control (1997) 896. Trainspotting (1996) 890. سِوى عَنْ مَوْقِع هَذا سِيادَتُكَ صَفيحة تَنْزيل فيلْم It Must Be Heaven ضِمْنَ خالٍ وَ نَوْعيّة عالٍ. Movie25 - Watch Medicine Man (1992) Full Movie Online Free - Plot unknown. The Witches full movie english subtitles. 24/04/2014 09:43 BST. Plotting on a payment they are about to receive, residents of a collapsing collective farm see their plans turn into desolation when they discover that Irimiás, a former co-worker who they thought was dead, is coming back to the village. Bastard 暗黒の破壊神 完全版 rar ⭐ 高橋みなみ 写真集 rapid gator. x Trailer , Ep 01, Jav EnglishSub Episode 10 | FSET 533 English sub When I Met. 4 min read. Subtitles: English; Region: Region 1 "Satantango" est l'une des expériences cinématographiques les plus imposantes et les plus inoubliables du cinéma moderne. Claude Lanzmann's epic documentary recounts the story of the Holocaust through interviews with witnesses - perpetrators as well as survivors. html - Watch The-Virgin-Suicides-1999. With English subtitles. Streaming Attack on Titan Anime series in HD quality. Найдено всего 9,544. Take notice that this release contains no English subtitles, only German 3. To be notified when Satantango becomes available on Blu-ray, simply submit. There’s a Swedish one! I watched it — with the subtitles! It’s set there. Satantango. Under Maintenance. Language : English. Lara Lor-Van | She was born in Tel Aviv, and first garnered the attention of Hollywood when she was cast by Steven Spielberg in her first English-speaking role, as Eric Bana's character's wife in the Oscar® nominated film, Apple Boards Israeli Drama Series ‘Losing Alice’, Apple Acquires Israeli Neo-Noir Series. (in Hungarian, with English subtitles) by Mr. 3 min read. The Third Coast Pocket Conference is the start of your next great story — featuring sessions from Third Coast Conferences and more. Running time: 7:30:00. Home Features Community Price Plans. Satantango DVD movie video at CD Universe, Hailed by critics as landmark cinema, SATANTANGO transcends all genres, surpasses all styles, The story revolves around an. raanjhanaa-songs-with-english-subtitles | 0 people have watched this. Original title: Sátántangó. دانلود زیرنویس فارسی سریال 2019 The Witcher - خلاصه داستان : سریال The Witcher داستان گرالت ریویایی، یک شکارچی هیولا است که او برای یافتن حقیقت در جهانی بسیار خطرناک که در آن مردم اغلب بیش از هیولاها شرور هستند مبارزه می کند. Sátántangó (Blu-ray) (1994) Plotting on a payment they are about to receive, residents of a collapsing collective farm see their plans turn into desolation when they discover that Irimiás, a former co-worker who they thought was dead, is coming back to the village. Know Something Disc 2: This disc includes the following Chapters: 4. Specialties: Anthology Film Archives is a center for the exhibition, preservation, and study of independent and artist film and video. Power on ワークブック 答え ⭐ Hp 2575allwindows7ドライバ ダウンロード. The bottom line: grand mastery. Watch Satantango-1994. 12:00 pm–8:05 pm. Language: English. Trainspotting (1996) 890. Part one of Béla Tarr's epic masterpiece. In a small, dilapidated village in 1990s Hungary, life has come to a virtual stand-still. Speed Walking (2014) Full Film w/English Subtitles Pt 2. 3xDVD See comment for info. Bölüm Fragmanı with English subtitles | Legacy 37. 4/10 based on 9,120 user ratings. Still from Satantango (1994). Новые вопросы в Английский язык. Some of the shots Kurosawa film are achingly beautiful, out on the vastness of the steppes. BluRay Country: Hungary | Germany | SwitzerlandLanguage: Hungarian. As in Satantango, Krasznahorkai worked with Tarr in adapting his own novel — in this case the first to be translated into English, The Melancholy of Resistance, elaborately restructured here in terms of narrative sequence and viewpoint so that it’s mainly limited to the experience of a simpleminded messenger and artist figure. The Planet is ours - where are we going!? With the global population soaring towards 9 billion people by 2050 current levels of meat and dairy consumption are not sustainable on our limited earth. Satantango Movie. Satantango Bela Tarr, Hungary, 1994, DCP, 450 min, In Hungarian with English Subtitles. Fullscreen. Satantango was shot over two years — 120 shooting days in all — at a cost of a little over a million and a half dollars, or roughly one-twelfth the cost of a “low-budget” Hollywood picture like Ed Wood. Chantal Akerman's Toute Une Nuit - To Cleave and Uncleave. ogv download. In anticipation of. In this film, set in the 15th century, Anatoly Solonitsin plays the title character, a legendary icon painter/political activist. 'Satantango' is a seven-hour Hungarian film shot in austere black-and-white and made up of long takes. Page 3 of 3 - [Pietra Miliare] Satantango (Tarr, 1994) - posted in Film recensiti: E me durante i filmoni come Satantango mi piace addormentarmi un po, ogni tanto. I'm a huge Malick fanboy so it's no surprise that I loved it. “Frantumaglia” is a Neapolitan word meaning a jumble of fragments — and this collection, by the writer of the beloved Neapolitan Quartet series, is appropriately a mixture of letters, essays and interviews. Tarr was reluctant, it seems, to bring Satantango out on DVD. Zombie Detective Episode 11 English Sub. The villagers expect to receive a large cash payment that evening, and then plan to leave. Satantango 1994 iNTERNAL BDRip x264-MANiC. r/movies: News & Discussion about Major Motion Pictures. Set in an unforgettable post-apocalyptic landscape etched in rich black-and-white cinematography, Satantango follows members of an agricultural community awaiting a financial windfall. html - Watch The-Virgin-Suicides-1999. com proves a valuable tool. His first novel, SATANTANGO, was published in 1985. Persian Subtitle Dooble Frost, the (SVCD) I-620 خواب و بیدار (7 دیسک) رویا نونهالی شبنم طلوعی Wolfman, the Ps-5507 Ps-5508 Ps-5509 Ps-5510 Ps-5511 Ps-5512 Best Clips (Khordad 89) S-2016 Morgan J. Know Something Disc 2: This disc includes the following Chapters: 4. Satantango Bela Tarr, Hungary, 1994, DCP, 450 min, In Hungarian with English Subtitles. 33:1 / 4:3 Colour: B & W Disc 1: This disc includes the following Chapters: 1. Download Satantango subtitles. In a small, dilapidated village in 1990s Hungary, life has come to a virtual stand-still. Claude Lanzmann's epic documentary recounts the story of the Holocaust through interviews with witnesses - perpetrators as well as survivors. The action takes place on the territory of a farm that survives its last days. He hasn't broken through in English translation yet -- but might have been on the cusp: Graywolf is bringing out Almost Never-- the translation of his prize-winning 2008 novel Casi nunca-- in April; pre-order your copy from Amazon. Supports major file formats and allows you to translate to over 80 different languages. Inhabitants of a small village in Hungary deal with the effects of the fall of Communism. The Man From London is a film directed by Béla Tarr with co-director and editor Ágnes Hranitzky, based on a novel by Georges Simenon. He now lives in reclusiveness in the hills of Szentlászló. No Subtitles Necessary: Laszlo & Vilmos Not Quite Hollywood: The Wild, Untold Story of Ozploitation! Nothing But The Truth Of Time and the City On Set Home Movies The Oxford Murders Paranoid Park Paris 36 Passengers Phoebe in Wonderland Picasso and Braque Go to the Movies Pineapple Express The Poker House Pride and Glory Prodigal Sons The Promotion. Irimias and. Watch Turkish Series with English Subtitles Online for Free without Registration only at our website Turkish123 - is the largest website where you can watch Turkish series with english subtitles online. « back to subtitle list. Satantango Subtitles. Full movie listings of showtimes for films playing at theaters in Tokyo, Yokohama, Osaka, Kyoto and Kobe. Shakespeare is meant to be acted not read, and the effect of hearing Hungarian while reading subtitles that kept Shakespeare's stylized writing (often strange and unnatural, per contemporary English. Hungary: A landlocked country. Andrei Tarkovsky) Spy Who Came in from the Cold, The (1965, dir. Subtitles settings. download 1 file. Established in 1970. In a small dilapidated village in Hungary, life has come to a virtual standstill. Original title: Sátántangó Inhabitants of a small village in Hungary deal with the effects of the fall of Communism. With István Balla, Imre Donko, and András Szabó. A few of the villagers expect to re. Satantango English Subtitles The opening shot of Satantango stretches patience to the limit; in an 8-minute prelude we watch a herd of cows slowly amble their way out of a shed and across muddy ground, behind some shabby buildings, and into a field. Acı Hayat episode 50. Release info: Satantango. On the eve of a large payment, residents of a collapsing collective farm see their plans turn into desolation when they discover that Irimiás, a former co-worker who they thought was dead, is returning to the village. Satantango, considered a classic of Hungarian literature, is an other-worldly novel that takes place in a rain-soaked, dying hamlet inhabited by people rife with malaise. Extract subtitles from favorite youtube video, download english, italian, french, greek, russian, spain subtitles for sitcoms, TV-Series like NCIS, Smallville, Fringe, House, Grey's Anatomy and learn. Still from Satantango (1994). The subtitle of What You Have Heard Is True is “A Memoir of Witness and Resistance” — two things, it seems, The book, which is translated from French to English, is as much about. Watch this film on your TV, computer, or mobile device through our streaming partner, Vimeo. Some of the shots Kurosawa film are achingly beautiful, out on the vastness of the steppes. Video with tags BRRip 1080p / Browse through AvaxHome Video category and choose a movie that suits your mood. Those pesky avante-garde titles are some of the hardest to locate but ubu. Shown with two intermissions. Will there ever be a restoration done for high-definition video and English language version?. and others. Use of English. You can watch free dramas and movies online and English subtitle. These two men have little in common but become great friends. oneofmurphysbiscuits wrote:Now i want to reread the Castle before Satantango. Hungarian auteur Bela Tarr's 7-hour, black-and-white epic based on the novel by Laszlo Karsznahorkai took two years to film. com/user/satantangofilms ☛ Канал на Twitch - www. The feverish pace of the shooting seems to unleash bad vibes as well as desire, and Assayas follows the delirium as if he were at the center of a hurricane. Hungarian term or phrase: Sátántangó. Stream size : 440 MiB (4%). opensubtitles. Kung Fu Master!. Data Protection Regulation. These include the Willamette Tumwater, Clackamas, Kathlemet, Molalla, Multnomah and Watlala Chinook Peoples and the Tualatin Kalapuya who today are part of the Confederated Tribes of Grand Ronde, and many other Native communities who made their homes along the. Tema na forumu. Satantango 1994 720p BluRay FLAC x264-USURY; Farinelli 1994 720p BluRay FLAC x264-USURY; Farinelli 1994 1080p BluRay FLAC x264-USURY; Down to Earth 1994 720p BluRay DTS x264-USURY. Super talented, Thailand, public-interest ads are not drinking, the light of life Chinese subtitles. CentochiodiErmanno Olmi. Tarr holds the average shot so long it makes Tarkovsky at his most soporific look like a director of MTV videos fired up on crack and a double espresso. It is based on the novel Satantango by Hungarian novelist László Krasznahorkai, who had been providing Tarr with stories since his 1988 film Damnation. com/user/satantangofilms ☛ Канал на Twitch - www. 3 Subtitles Warm Bodies - subtitles english. Buy a cheap copy of Satantango book by László Krasznahorkai. « back to subtitle list. Machine Translated Subtitles for: Tenet. 0) Studio : UK-MOOVIES; ASIN : B084ZK3T97; Number of discs : 2. However elsewhere in the film world an alternative and equally influential film story was being told, in the form of Hungarian master Béla Tarr's 7+ hour behemoth Sátántangó. Favorites: 2046 (2004), The Celebration (1998), The Cabinet of Dr. Topics eoPorElAbism. We are pleased to present below all posts tagged with 'Satantango'. Why Russians Are the Best at Ballet (Video) - by Olga Beskrovnova *Subtitles by Julia Rakhmetova* ----- Ballet is a constant of Russian culture, its finest calling card and 3 weeks ago Black Pigeon Speaks Video. The autumn rains have started. label Arbelos has provided us with an official domestic trailer for its new 4K restoration of Béla Tarr’s Satantango (1994), starring János Derzsi, Erika Bók, Mihály Kormos, and Mihály Vig. Jonathan Rosenabum Here is the trailer. General Admission: $20. The English Patient (1996)** 887. The Third Coast Pocket Conference is the start of your next great story — featuring sessions from Third Coast Conferences and more. Satantango (1994) – 4K Blu-ray September 28, 2019 0 Comment U. Subtitles Satantango - subtitles english. سِوى عَنْ مَوْقِع هَذا سِيادَتُكَ صَفيحة تَنْزيل فيلْم It Must Be Heaven ضِمْنَ خالٍ وَ نَوْعيّة عالٍ. html - Watch Le-Havre-2011. Tarr's mesmerizing recreation of an entire world, complete with all of this world's poetry, despair, horror, and humor (even amid the ennui, Sátántangó certainly boasts a gallows flair for the comedic). COM 1799 retrievals of 16 subtitles Deep Blue Sea 3 Imdb. ” While one can understand instantly why Claude Lanzmann thought his Holocaust documentary “Shoah,” which he spent years shooting, needed to be nine hours long, the rationale behind narrative …. A Spanish love story to ddad Romeo and Juliet. Смотрите также видео: After The Shooting Ends [English Subs], Hot Sexy Girl Movie , English Subtitle , JAV S. English subtitles and Russian subtitles. The Ice Storm (1997) 898. net/stories/2012/01/01/2011-year-triumphs-flops-quirks http://insanelygood. English-Films. Spanish with English subtitles 83 minutes In the midst of a world plagued by gang violence, 10-year-old Estrella (Paolo Lara) is left to her own devices after her mom disappears. June 14, 2018. Age Of Enlightenment Movies. ** Alistair, Hey, A! My weekend was a bit of all right. Topics eoPorElAbism. It is based on the 1985 novel Satantango by Hungarian novelist László Krasznahorkai, who had been providing Tarr with stories since his 1988 film Damnation. Satantango Imdb Flag. It is bold, dense, difficult, and utterly unforgettable. id recommend this one called promised land by gus van sant. Starring: Mihály Víg, Putyi Horváth, Miklós Székely B. For the 2020 holiday season, returnable items shipped between October 1 and December 31 can be returned until January 31, 2021. Set in an unforgettable post-apocalyptic landscape etched in rich black-and-white cinematography, Satantango follows members of an agricultural community awaiting a financial windfall. Translated into English by John Batki, Ottilie Mulzet, and George Szirtes (New Directions, 2017). Satantango Bela Tarr, Hungary, 1994, DCP, 450 min, In Hungarian with English Subtitles. Happy Together (1997) 894. And we all know that, regardless of how good or impo. The Ice Storm (1997) 898. László Krasznahorkai, Satantango. “One of the greatest achievements in recent art house cinema and a seminal work of “slow cinema,” Sátántangó, based on the book by László Krasznahorkai, follows members of a small, defunct agricultural collective living in a post-apocalyptic landscape after the fall of Communism who, on the heels of a large financial windfall, set out to leave their village. Caligari (1920), Sans Soleil (1983). Watch anime online in high quality with English dubbed subbed. results 1 - 1 from 1. Sunday, December 22, 2019. 10 nonfiction books to immerse yourself in this fall. Watch short videos about raanjhanaa-songs-with-english-subtitles on Likee created by Likee Official. Subtitles for. As I made my way toward the end of the project, movies became harder and harder to find. Frame rate : 31. In a small dilapidated village in Hungary, life has come to a virtual standstill. We listed up some initiatives. In a small, dilapidated village in 1990s Hungary, life has come to a virtual stand-still. "Satantango" breaks down into separate episodes, like a long, tense, disturbingly effective sequence involving a young girl and her pet cat. The English Patient (1996)** 887. Page 3 of 3 - [Pietra Miliare] Satantango (Tarr, 1994) - posted in Film recensiti: E me durante i filmoni come Satantango mi piace addormentarmi un po, ogni tanto. This is a major scene from the 7-hours long motion picture Sátántangó, by Béla Tarr. Scream (1996) 891. html - Watch Life-on-the-Line-2015. html - Watch In-a-Valley-of-Violence-2016. 図解 よくわかるこれからのバイヤー ダウンロード. On the eve of a large payment, residents of a collapsing collective farm see their plans turn into desolation when they discover that Irimiás, a former co-worker who they thought was dead, is returning to the village. In French with English subtitles Director: Philippe Ramos France, 2008, 100mins, TBC Cast : Denis Lavant Jacques Bonnaffé, Bernard Blancan Adventure In five episodes, Achab is seen through the eyes of five people- his father, his aunt, Mulligan, a preacher who helps him, Anna, his lover, and Starbuck, the Pequod's mate. ogv download. Satantango DVD. Tv series subtitles Bojack Horseman Season 5 Subtitles. He and Oolong went to the same shapeshifting school together, where he was. Sátántangó (based on a novel by László Krasznahorkai) follows the inhabitants of a Hungarian village after the fall of communism. the hateful 8 is unlikely to get anywhere near this or the iceman cometh. A bereft former police chief (Ingvar Sigurdsson), whose golden years are spent. Critics gushed that SATANTANGO was without parallel - but two hours into the movie, I was less Structure, structure, structure. Sátántangó has ended its run in our Virtual Cinema. In Hungarian with English subtitles. You'd have to be high to dig Half Baked's half baked production and scattershot sense of humor -- although maybe that was the point of this Dave Chapelle-led joint. Inhabitants of a small village in Hungary deal with the effects of the fall of Communism. Inhabitants of a small village in Hungary deal with the effects of the fall of Communism. subtitles off , selected. Some of the shots Kurosawa film are achingly beautiful, out on the vastness of the steppes. Watch this film on your TV, computer, or mobile device through our streaming partner, Vimeo. In a small dilapidated village in Hungary, life has come to a virtual standstill. Topics eoPorElAbism. Tarr was reluctant, it seems, to bring Satantango out on DVD. Satantango subtitles. Goodbye, my son. Shot in black-and-white, it runs for more than seven hours. Al Jazeera English. eoPorElAbism Addeddate 2018-03-26 12:21:51 Identifier SATANTANGO19942PARTEBELATARR. English subtiltes for movie: Satantango. html - Watch Trumbo-2015. Kung Fu Master!. Watch Satantango-1994. 'Satantango' is a seven-hour Hungarian film shot in austere black-and-white and made up of long takes. Sátántangó (based on a novel by László Krasznahorkai) follows the inhabitants of a Hungarian village after the fall of communism. x Trailer , Ep 01, Jav EnglishSub Episode 10 | FSET 533 English sub When I Met. Jia Zhangke). Budapest has some lovely art cinemas with colourful art movie offer. He has also received several international and Hungarian awards and honours for literature. Recent subtitles The Wall S01 Complete. With English subtitles: The Day a Pig Fell in the Well May 29th 8:30pm, June 2nd 1:30pm The Virgin Stripped Bare by her Bachelors June 2nd 8:30pm Woman on the Beach May 31th 1:30pm Without subtitles: The Power of Kangwon Province May 30th 1:30pm, June 1st 8:30pm. No vouchers. Credit:Brendan Foster. In a small, dilapidated village in 1990s Hungary, life has come to a virtual stand-still. Official translation. Buy Sátántangó on DVD with FREE delivery from ZOOM. Werckmeister Harmonies 720p. Not Synced Wrong subtitle Missing subtitle. Kung Fu Master!. Buy laszlo krasznahorkai Books at Indigo. 1994 may have been the year of 'Pulp Fiction', 'The Lion King' and Jim Carrey's trailblazing run of 'Ace Ventura', 'The Mask' and 'Dumb and Dumber'. In times of social distancing, cinema visits, alone or collectively, are not allowed anymore. Glad I saw it and it IS, after all, an Edward DeVere play, but the effect on me was like a Hungarian watching an English remake of SATANTANGO. Find trailers, reviews, synopsis, awards and cast information for Sátántangó (1993) - Bela Tarr, Béla Tarr on AllMovie - This European epic is seven hours long. تَنْزيل فِلْم صِفة It Must Be Heaven بِ كَيْف أَطْيَب بِ تَرْجَمة أَنْتُمْ عَدَم. Shown with two intermissions. Use of English. These two men have little in common but become great friends. Such were the strange fortunes of Alejandro Jodorowsky in the 70's that he went from the mind bending Holy Mountain to the abandoned multi-million dollar production of Dune to directing Tusk, his 1980 film adapted from a children's book about a girl and an elephant born on the same day on a plantation in British controlled India. Satantango, considered a classic of Hungarian literature, is an other-worldly novel that takes place in a rain-soaked, dying hamlet inhabited by people rife with malaise. Subtitles for movies. On 123Movies you can watch Satantango online with subtitles or in original. 10 nonfiction books to immerse yourself in this fall. "Enthralling for every minute of its seven hours. 11 The soup that the wife prepared for her returning husband should have been the symbol of the minimal relief that calms down a need for so-. Princess Mononoke (1997) 895. Cantonese and Shanghainese with English subtitles Wong Kar Wai’s swoon-inducing instant classic made Maggie Cheung and Tony Leung the star-crossed dream team of the early 2000s art house. Satantango [3 DVDs] [UK Import] Peter Berling. Icelandic with English subtitles. A Fremantle Dockers club store will also be opened to help the Dockers retain a presence in their spiritual home. ms) Size: 40,678,410,240 bytes Total Bitrate: 20. I watch Korean, Argentine, Spanish, Japanese and Thai whenever I find them with subtitles. The film as financed by Mosfilms of the USSR. VOD-platforms2. Inhabitants of a small village in Hungary deal with the effects of the fall of Communism. Fullscreen. SATANTANGO (1994) 3ª PARTE-BELA TARR. A fixture on all-time best-of lists, the hallowed experience of Satantango in a theater is an essential notch in any cinephile’s belt. Satantango (1994, dir. Directed by Béla Tarr, Ágnes Hranitzky Hungary 1994 439 mins In Hungarian with English subtitles One of the greatest achievements in recent art house cinema and a seminal work of “slow cinema,” Sátántangó, based on the book by László Krasznahorkai, follows members of a small, defunct agricultural collective living in a post-apocalyptic landscape after the. Set in an unforgettable post-apocalyptic landscape etched in rich black-and-white cinematography, Satantango follows members of an agricultural community awaiting a financial windfall. Sekigahara Blu-ray Disc English Subtitles Tbr-28069d 4988104109699 2017 Toho New. Sefirin Kızı episode 25. Shot in black-and-white, completed in 1994, it runs an epic 7 hours and 12 minutes. Bela Tarr – Satantango subtitless Part7. 904 잉글리쉬 페이션트 The English Patient (1996) 905 LA 컨피덴셜 L. “Enthralling for every minute of its seven hours. Online Subtitles Translator & Editor - Translate Subtitles. Interesting statistics with world population clock, forest loss this year. The villagers expect to receive a large cash payment that evening, and then plan to leave. results 1 - 1 from 1. Satantango Directed by Béla Tarr Screenplay by Lászlo Krasznahorkai DVD: Facets Video, 2008 435 minutes / Available on Amazon. Wheelchair accessible. Subtitles: English DVD Regions: Region 2 Formats: Pal Aspect Ratio: Full Screen 1. Read: The Real Exorcist English Subtitles. Add subtitles to MP4, AVI, MOV or any other video manually or with an SRT file. ogv download. No Subtitles Necessary: Laszlo & Vilmos Not Quite Hollywood: The Wild, Untold Story of Ozploitation! Nothing But The Truth Of Time and the City On Set Home Movies The Oxford Murders Paranoid Park Paris 36 Passengers Phoebe in Wonderland Picasso and Braque Go to the Movies Pineapple Express The Poker House Pride and Glory Prodigal Sons The Promotion. Shot in black-and-white, it runs for more than seven hours. subtitles off , selected. 12:00 pm–8:05 pm. Confidential (1997) The Ice Storm (1997) "The Sweet Hereafter (1997) Funny Games (1997) Taste of Cherry (1997) Open Your Eyes (1997) Titanic (1997) Festen (1998) Saving Private Ryan (1998) Buffalo 66 (1998) Rushmore (1998) Lola Rennt (1998) Pi (1998) Happiness (1998) The Thin Red Line (1998) Ringu (1998) Magnolia. Interesting statistics with world population clock, forest loss this year. tv/satantangotwitch ☛ Группа. - Agencies provide +100 leadership, ethics books For Nigerien Army cadets, officers Partnership with #Niger is critical, as they provide a key role in region. Know Something Disc 2: This disc includes the following Chapters: 4. subtitle Satantango (1994) (subshare's sub, edited) 3 x DVD. Sátántangó (1994). An Arbelos release. 24/04/2014 09:43 BST. Werckmeister harmóniák. دنبال کردن. No vouchers. In Hungarian with English subtitles. It was adapted into a widely acclaimed seven-hour film, Sátántangó (1994), directed by Béla Tarr. For contemporary Russian documentaries with English subtitles have a look at this RT website. Subtitles for. A decrepit. Directed by Béla Tarr. Hong Kong; China/2007/113 minutes/Color/In Mandarin with optional English subtitles. He and Oolong went to the same shapeshifting school together, where he was. Subtitles: English, None: English, None: Features: Release Information: Throw away those infamous bootlegs and pick up the AE set of Satantango. Bastard 暗黒の破壊神 完全版 rar ⭐ 高橋みなみ 写真集 rapid gator. Satantango в гостях у Убермаргинала. Translation memories are created by. The phrase "too clever by half" sums him up for me. In a small dilapidated village in Hungary, life has come to a virtual standstill. There live a small band of hobos who will do anything they can to leave the place. The film observes the lives of the inhabitants on a failing collective farm. Sátántangó - Order and freedom (english subtitles). Sátántangó (Blu-ray) (1994) Plotting on a payment they are about to receive, residents of a collapsing collective farm see their plans turn into desolation when they discover that Irimiás, a former co-worker who they thought was dead, is coming back to the village. "A work of bravura filmmaking" (Village Voice). However they hear that the smooth talking Irimias, whom they thought had. ) Trakt: timebias Grouvee. Although composed of only 39 shots, the mesmerizing camerawork of this complex allegory creates subtle suspense and a lingering sense of dread. html - Watch Le-Havre-2011. Come and See (Иди и смотри) is renowned Soviet director, Elem Klimov's final feature film. UCLA Film & Television Archive is pleased to partner with Arbelos Films to present this modern masterwork in a new restoration as part of its Virtual Cinema programming. Film Festivals5. Satantango 1994 720p BluRay FLAC x264-USURY; Farinelli 1994 720p BluRay FLAC x264-USURY; Farinelli 1994 1080p BluRay FLAC x264-USURY; Down to Earth 1994 720p BluRay DTS x264-USURY. The famous opening shot of Bela Tarr's "Satantango" is done in a single take lasting seven minutes. A decrepit. Thanks for the A2A There are countless movies when it comes to foreign cinema. SATANTANGO ( 1994) 2ª PARTE BELA TARR. Flights (2007; English 2017) by Olga Tokarczuk (Poland, 1962- ) translated by Jennifer Croft (USA, Argentina, - ) This is more of a "typical postmodern novel" than Drive your plow — short, apparently unconnected sections with ironic chapter-headings, that are sometimes first-person observations in the author's persona, sometimes historical. Show subtitles. The Planet is ours - where are we going!? With the global population soaring towards 9 billion people by 2050 current levels of meat and dairy consumption are not sustainable on our limited earth. But as the increasingly. Original title: Sátántangó Inhabitants of a small village in Hungary deal with the effects of the fall of Communism. “László Krasznahorkai’s novel Satantango is an argument for the vitality of translation. The English Patient (1996) L. Language: ENGLISH SUBTITLES. se non erro era una cosa che diceva Ghezzi. Education’s much more flexible and all this. Name: Satantango 1994 XviD DVDRip Sub_SergV. A training manual for the end of days. VS/N: 8 scenes with implied sex, innuendo and brief nudity. The translations are quite literal and scholarly and has the original language AND the english translation in the same volume (Original on left page and translation on the right). Tv series subtitles Bojack Horseman Season 5 Subtitles. The famous opening shot of Bela Tarr's "Satantango" is done in a single take lasting seven minutes. r/movies: News & Discussion about Major Motion Pictures. Documentary, War, History. Video with tags BRRip 1080p / Browse through AvaxHome Video category and choose a movie that suits your mood. In Hungarian with English subtitles. Amir_Kubrick. translation and definition "Satantango", English-Spanish Dictionary online. 20768 - Series 1 & 2 - dvd 1 (DVD, original - not available, with English subtitles) 20769 - Series 1 & 2 - dvd 2 (DVD, original - not available, with English subtitles) 20770 - Series 1 & 2 - dvd 3 (DVD, original - not available, with English subtitles) 20771 - Series 3 & 4 - dvd 1 (DVD, original - not available, with English subtitles). Rated the #1 best film of 2000, and #84 in the greatest all-time movies (according to RYM users). Satantango subtitles English. سِوى عَنْ مَوْقِع هَذا سِيادَتُكَ صَفيحة تَنْزيل فيلْم It Must Be Heaven ضِمْنَ خالٍ وَ نَوْعيّة عالٍ. Age Of Enlightenment Movies. 1994 may have been the year of 'Pulp Fiction', 'The Lion King' and Jim Carrey's trailblazing run of 'Ace Ventura', 'The Mask' and 'Dumb and Dumber'. For the 2020 holiday season, returnable items shipped between October 1 and December 31 can be returned until January 31, 2021. Starring: Mihály Víg, Putyi Horváth, Miklós Székely B. - Agencies provide +100 leadership, ethics books For Nigerien Army cadets, officers Partnership with #Niger is critical, as they provide a key role in region. Sátántangó Aka Satantango (1994) 6 CD. Sátántangó - Order and freedom (english subtitles). Satantango в гостях у Убермаргинала. Kung Fu Master!. Irimiás(Mih& …. VIRTUAL CINEMA DOWNLOAD OCTOBER CALENDAR Time & Space Limited expands into the digital realm! In partnership with our film distributors, we offer you a selection of independent films, documentaries, and theater available to stream from your devices at home. and others. Genre : Drama Plotting on a payment they are about to receive, residents of a collapsing collective farm see their plans turn into desolation when they discover that Irimiás, a former co-worker who they thought was dead, is coming back to the village. We’ve carefully organized all the movies on our website not only based on genre, but also based on language, format, quality, production land, and the date of release. Translate your srt, sub, sbv, ass, vtt, stl This FREE online subtitle translator can instantly translate subtitles from one language to another. Art Cinemas in Budapest – Movie Theatres with Laid-Back Atmosphere. “One of the greatest achievements in recent art house cinema and a seminal work of “slow cinema,” Sátántangó, based on the book by László Krasznahorkai, follows members of a small, defunct agricultural collective living in a post-apocalyptic landscape after the fall of Communism who, on the heels of a large financial windfall, set out to leave their village. At long last, twenty-five years after the Hungarian genius László Krasznahorkai burst onto the scene with his first novel, Satantango dances into English in a Free shipping over $10. “Enthralling for every minute of its seven hours. The Spider's. Feel free to post your Satantango 1994 720p BluRay x264-USURY torrent, subtitles, samples, free download, quality, NFO, direct link, free link, uploaded. Satantango. Release Name: dvdrip. The images are screenshots of Jób lázadása, which you can find in DVD format (with optional English subtitles) or watch online (without subtitles). Martin Ritt) Still Life (2006, dir. Krzysztof Kieslowski) Solaris (1972, dir. The English translation by George Szirtes won the Best Translated Book Award (2013). ** Alistair, Hey, A! My weekend was a bit of all right. COM 1799 retrievals of 16 subtitles Deep Blue Sea 3 Imdb. 1 subtitles available Download the english subtitle for Satantango. Why Russians Are the Best at Ballet (Video) - by Olga Beskrovnova *Subtitles by Julia Rakhmetova* ----- Ballet is a constant of Russian culture, its finest calling card and 3 weeks ago Black Pigeon Speaks Video. Sunday, December 22, 2019. Satantango English Subtitles. In a small, dilapidated village in 1990s Hungary, life has come to a virtual stand-still. A commentary by. Autorski titl. Sátántangó - Order and freedom (english subtitles). دانلود دوبله فارسی فیلم Werckmeister Harmonies 2000 با کیفیت عالی,زیرنویس فارسی Werckmeister Harmonies,درام, رازآلود ,,دانلود دوبله فارسی فیلم جدید,دوبله فارسی,دانلود با لینک مستقیم. Satantango subtitles. Nroo Dec 31, 2007: Finally got to see it this weekend, as penance for seeing CATS. Satantango Bela Tarr, Hungary, 1994, DCP, 450 min, In Hungarian with English Subtitles. Jean-Luc Godard • France 2014 • 1h10m DCP • French with English subtitles 15 – Contains strong sex, sexualised nudity Cast: Héloise Godet, Kamel Abdeli, Richard Chevallier, Zoé Bruneau. An out and out masterpiece The Independent on Sunday Hungary 2000 145 mins approx Hungarian with English subtitles The Man From London (A Londoni Férfi) When a withdrawn and reclusive railway signalman witnesses a murder, his life is transformed and he is forced to confront issues of morality, sin, punishment and the line between innocence and. Deadpan sheep-farmer drama Rams, a prizewinner at Cannes 2015, is the latest proof of the vitality of modern Icelandic cinema. Show subtitles. Read 709 reviews from the world's largest community for readers. As its long tracking shots and striking black and white (sometimes gray) compositions show, it is also an immense technical achievement. 20768 - Series 1 & 2 - dvd 1 (DVD, original - not available, with English subtitles) 20769 - Series 1 & 2 - dvd 2 (DVD, original - not available, with English subtitles) 20770 - Series 1 & 2 - dvd 3 (DVD, original - not available, with English subtitles) 20771 - Series 3 & 4 - dvd 1 (DVD, original - not available, with English subtitles). Tema na forumu. Sekigahara Blu-ray Disc English Subtitles Tbr-28069d 4988104109699 2017 Toho New. AKA: Satan's Tango. An Arbelos release. The DVD subtitles and dubbing, as mentioned, are bad, although only the subtitles would be the DVD’s fault. The Witches full movie english subtitles free. It takes place in Belarus during WWII and tells the story of the horrifying treatment of locals by German. 1 subtitles available Download the english subtitle for Satantango. Satantango is considered one of the greatest films of all time. Shot in black-and-white, it runs for more than seven hours. The Autumn rains have started. Release info: Satantango. It is Krasznahorkai's debut novel. Inhabitants of a small village in Hungary deal with the effects of the fall of Communism. English subtitles. Маргинальные Хайлайты. Video with tags BRRip 1080p / Browse through AvaxHome Video category and choose a movie that suits your mood. BEST 2013 HORROR FILM – Sightseers – A witty, darkly comic romp through the English countryside with a pair of unlikely murderers. 100 Poetic Movie-Titles in English (1) 100 Real Life Film Families (1) 100 Surprising Early Roles of Major Film Stars (1) 100 Underrated Movies (1) 100 Very Weird Movies (1) 101 Important Auteurs (1) 12 Funny Character Names In Preston Sturges Movies (1) 120 Actors Who've Directed (1) 120 Classic Short Films (60 Minutes or Less) (1). Audio Quality. Subtitle, Ramo episode Full With English Subtitle, latest turkish series with english subtitles. Sátántangó (1994). Duncan Campbell’s video is also worth going to see. But despite my efforts, of the 30. Free shipping and pickup in store on eligible orders. Large database of subtitles for movies, TV series dvdrip. Sadly spoiled by a distracting poor quality dub into English. Films of the Year (in preferential order) 1. Subtitles: English, None: English, None: Features: Release Information: Throw away those infamous bootlegs and pick up the AE set of Satantango. Starring: Mihály Víg, Putyi Horváth, Miklós Székely B. html - Watch Life-on-the-Line-2015. On the eve of a large payment, residents of a collapsing collective farm see their plans turn into desolation when they discover that Irimiás, a former co-worker who they thought was dead, is returning to the village. Sátántangó - Order and freedom (english subtitles). Irishman, The (Criterion). Lara Lor-Van | She was born in Tel Aviv, and first garnered the attention of Hollywood when she was cast by Steven Spielberg in her first English-speaking role, as Eric Bana's character's wife in the Oscar® nominated film, Apple Boards Israeli Drama Series ‘Losing Alice’, Apple Acquires Israeli Neo-Noir Series. Satantango vo (Bela Tarr) partx. Satantango English Subtitles The opening shot of Satantango stretches patience to the limit; in an 8-minute prelude we watch a herd of cows slowly amble their way out of a shed and across muddy ground, behind some shabby buildings, and into a field. Our hopes and dreams travel with you. Race Fast Shutter Island (Blu-ray 4K) Sleepwalkers (US Old Blu-r. Subtitle details. The Anagrama foreign rights page calls it a: "Rabelaisian tale of lust and longing". Drama, Romance, USA. With English subtitles. )” Contact: Arbelos Films, info(at)arbelosfilms. Available Fri April 24–Mon May 04, Virtual Screening Room Hungary, 1994, in Hungarian, Black and White, 450 min. Inhabitants of a small village in Hungary deal with the effects of the fall of Communism. Subtitles: English DVD Regions: Region 2 Formats: Pal Aspect Ratio: Full Screen 1. Subtitles for YIFY movie. In a small dilapidated village in Hungary, life has come to a virtual standstill. Supports major file formats and allows you to translate to over 80 different languages. These include the Willamette Tumwater, Clackamas, Kathlemet, Molalla, Multnomah and Watlala Chinook Peoples and the Tualatin Kalapuya who today are part of the Confederated Tribes of Grand Ronde, and many other Native communities who made their homes along the. Such were the strange fortunes of Alejandro Jodorowsky in the 70's that he went from the mind bending Holy Mountain to the abandoned multi-million dollar production of Dune to directing Tusk, his 1980 film adapted from a children's book about a girl and an elephant born on the same day on a plantation in British controlled India. Marley roams restlessly, witnessing the hardships that others suffer, and laments that he has forever lost his chance to help them. Goodbye, my son. With English subtitles: The Day a Pig Fell in the Well May 29th 8:30pm, June 2nd 1:30pm The Virgin Stripped Bare by her Bachelors June 2nd 8:30pm Woman on the Beach May 31th 1:30pm Without subtitles: The Power of Kangwon Province May 30th 1:30pm, June 1st 8:30pm. The action takes place on the territory of a farm that survives its last days. Rublev gives up his work entirely after being forced to kill a man. Woman of the Dunes Hiroshi Teshigahara, 1964, 147 min Japanese with English subtitles FULL DETAILS. Tarr examines their standstill lives through a series of episodes told from each person's point-of-view. Translate to translate text from photos into Czech, English, French, German, Italian, Polish, Portuguese, Russian, Spanish, Turkish, Ukrainian and other languages (only available when. It is bold, dense, difficult, and utterly unforgettable. Shown with two intermissions. mita53 Translator Legend. Watch Satantango (1994) Online free, Satantango (1994), Stream Satantango (1994). Transparency Report. In French with English subtitles Director: Philippe Ramos France, 2008, 100mins, TBC Cast : Denis Lavant Jacques Bonnaffé, Bernard Blancan Adventure In five episodes, Achab is seen through the eyes of five people- his father, his aunt, Mulligan, a preacher who helps him, Anna, his lover, and Starbuck, the Pequod's mate. 250 FPS (1536 SPF). Partnership with #Niger is critical, as they provide a key role in regional security; development in leadership and English-speaking enhances that partnership. The film is shown in a 16:9 aspect ratio. | pb | 9788833571683 | €19,00 edizioni e/o Review by Jeanne Bonner If all had gone as planned—which is to say if a global pandemic hadn’t bulldozed our normal lives—this summer, you might have been reading Ann Goldstein’s English. Satantango. TV-Series with english subtitles: FURY ➫ https://www. Translate your SRT subtitle files into a rich variety of languages and merge them into one, instantly This neat tool allows you to easily translate your SRT subtitle files into any language supported by. It was adapted into a widely acclaimed seven-hour film, Sátántangó (1994), directed by Béla Tarr. Jul 31, 2020 00:36:08 Rooij English 21. html - Watch Trumbo-2015. All with new books, or books newly translated into English. In Hungarian with English subtitles SUB Subtitled We’ve worked with Arbelos Films, the distributor of SÁTÁNTANGÓ, to make it possible for you to see the film — and your ticket purchase helps support the Belcourt. VIRTUAL CINEMA DOWNLOAD OCTOBER CALENDAR Time & Space Limited expands into the digital realm! In partnership with our film distributors, we offer you a selection of independent films, documentaries, and theater available to stream from your devices at home. html - Watch The-Virgin-Suicides-1999. Power on ワークブック 答え ⭐ Hp 2575allwindows7ドライバ ダウンロード. Persian Subtitle Dooble Frost, the (SVCD) I-620 خواب و بیدار (7 دیسک) رویا نونهالی شبنم طلوعی Wolfman, the Ps-5507 Ps-5508 Ps-5509 Ps-5510 Ps-5511 Ps-5512 Best Clips (Khordad 89) S-2016 Morgan J. Age Of Enlightenment Movies. A series of events. Raaz E Ulfat Ep 30 English Subtitles 27Th October 2020 Har Pal Geo. Béla Tarr’s seven-and-a-half hour magnum opus is a symphony in black and white, a masterpiece of visual narrative. Satantango Subtitles. Original title: Sátántangó Inhabitants of a small village in Hungary deal with the effects of the fall of Communism. Having watched the film, whole and part, it was only when ignoring the subtities many of the visual details were noticed. These include the Willamette Tumwater, Clackamas, Kathlemet, Molalla, Multnomah and Watlala Chinook Peoples and the Tualatin Kalapuya who today are part of the Confederated Tribes of Grand Ronde, and many other Native communities who made their homes along the. And we all know that, regardless of how good or impo. The action takes place on the territory of a farm that survives its last days. Why Russians Are the Best at Ballet (Video) - by Olga Beskrovnova *Subtitles by Julia Rakhmetova* ----- Ballet is a constant of Russian culture, its finest calling card and 3 weeks ago Black Pigeon Speaks Video. Ladies and gentlemen! At Kino Pod Baranami the one and only PARASITE movie is shown with both Polish and English subtitles! On Tuesday, Feb, 18th you will have a chance to see PARASITE in black&white (screening @Małopolska Garden of Arts, Rajska 12 st. A few of the villagers expect to receive a large cash payment that evening, and then plan to leave. You can watch movies online for free without Registration. Age Of Enlightenment Movies. Confidential (1997) The Ice Storm (1997) "The Sweet Hereafter (1997) Funny Games (1997) Taste of Cherry (1997) Open Your Eyes (1997) Titanic (1997) Festen (1998) Saving Private Ryan (1998) Buffalo 66 (1998) Rushmore (1998) Lola Rennt (1998) Pi (1998) Happiness (1998) The Thin Red Line (1998) Ringu (1998) Magnolia. He will be an outcast. Tag - English Subtitles. Buy laszlo krasznahorkai Books at Indigo. Le tango de Satan (subtitle). Sátántangó magyar filmdráma, 439 perc, 1994 Satantango. Favorites: 2046 (2004), The Celebration (1998), The Cabinet of Dr. Hungarian (Stereo). Nema ocjene. ナショナルトレジャー リンカーン 本 x. As its long tracking shots and striking black and white (sometimes gray) compositions show, it is also an immense technical achievement. Перевести эту страницу. Year: 1994. November 24 Béla Tarr’s massive, seven+ hour masterpiece immerses viewers in a novelistic tableau of life in a small Hungarian town as communism falls. Vietnamese War Movie: When the Tenth Month Comes | English Subtitles. It was adapted into a widely acclaimed seven-hour film, Sátántangó (1994), directed by Béla Tarr. and others. Stream size : 440 MiB (4%). Cantonese and Shanghainese with English subtitles Wong Kar Wai’s swoon-inducing instant classic made Maggie Cheung and Tony Leung the star-crossed dream team of the early 2000s art house. Add a subtitle file or write captions yourself, and edit the font. With Mihály Vig, Putyi Horváth, László feLugossy, Éva Almássy Albert. Smith’s Socrates and Subtitles: A Philosopher’s Guide to 95 Thought-Provoking Movies from Around the World—casts a wider net. Read 709 reviews from the world's largest community for readers. Satantango (Hungarian: Sátántangó, tr. English(selected). Sátántangó is a 1994 Hungarian art drama film directed by Béla Tarr. And Noomi Rapace is so much more compelling than Mara. Güvercin episode 14. Shown with two intermissions. m May 10, 2020 at 2:10 am - Reply keyser soze. In his exquisite "Werckmeister Harmonies," Tarr offers a film that's more accessible than his 7 1/2-hour epic "Satantango," but one that wrestles just as.